Download 18+ Women Of Mafia 2 2019 720p BluRay x264 LLG torrent - GloDLS
Torrent Details For "18+ Women Of Mafia 2 2019 720p BluRay x264 LLG"

18+ Women Of Mafia 2 2019 720p BluRay x264 LLG

To download this torrent, you need a BitTorrent client: Vuze or BTGuard
Download this torrent
Download using Magnet Link

Health:
Seeds: 1
Leechers: 0
Completed:
Last Checked: 10-10-2019 13:40:52

Uploader Reputation points : 4914
External: Torrent






Write a Review for the Uploader:   0   Say Thanks with one good review:
Share on Facebook


Details
Name:18+ Women Of Mafia 2 2019 720p BluRay x264 LLG
Description:

Quote:




******************************Thumbnail:**********************




******************************Screenshots:********************

Screenshot 1

Screenshot 2

Screenshot 3

Screenshot 4

Screenshot 5

Screenshot 6

Screenshot 7

Screenshot 8

Screenshot 9

Screenshot 0

***************************************************************
General
18+.Women.Of.Mafia.2.2019.720p.BluRay.x264.LLG.mp4
Format                                   : MPEG-4
Format profile                           : Base Media
Codec ID                                 : isom (isom/iso2/avc1/mp41)
File size                                : 868 MiB
Duration                                 : 2 h 18 min
Overall bit rate mode                    : Variable
Overall bit rate                         : 880 kb/s
Writing application                      : Lavf57.83.100

Video
ID                                       : 1
Format                                   : AVC
Format/Info                              : Advanced Video Codec
Format profile                           : [email protected]
Format settings                          : CABAC / 1 Ref Frames
Format settings, CABAC                   : Yes
Format settings, Reference frames        : 1 frame
Codec ID                                 : avc1
Codec ID/Info                            : Advanced Video Coding
Duration                                 : 2 h 18 min
Bit rate mode                            : Variable
Bit rate                                 : 745 kb/s
Maximum bit rate                         : 2 304 kb/s
Width                                    : 1 280 pixels
Height                                   : 534 pixels
Display aspect ratio                     : 2.40:1
Original display aspect ratio            : 2.40:1
Frame rate mode                          : Constant
Frame rate                               : 24.000 FPS
Color space                              : YUV
Chroma subsampling                       : 4:2:0
Bit depth                                : 8 bits
Scan type                                : Progressive
Bits/(Pixel*Frame)                       : 0.045
Stream size                              : 736 MiB (85%)
Codec configuration box                  : avcC

Audio
ID                                       : 2
Format                                   : AAC LC
Format/Info                              : Advanced Audio Codec Low Complexity
Codec ID                                 : mp4a-40-2
Duration                                 : 2 h 18 min
Bit rate mode                            : Constant
Bit rate                                 : 129 kb/s
Channel(s)                               : 2 channels
Channel layout                           : L R
Sampling rate                            : 48.0 kHz
Frame rate                               : 46.875 FPS (1024 SPF)
Compression mode                         : Lossy
Stream size                              : 127 MiB (15%)
Default                                  : Yes
Alternate group                          : 1


***************************************************************



YouTube Video:
Category:Movies
Language:English  English
Total Size:898.34 MB
Info Hash:0928E87D5884895CE3D378BFA701787E0729A1EF
Added By:LifeLongg Verified Uploader
Date Added:2019-10-10 20:40:51
Torrent Status:Torrent Verified


Ratings:Not Yet Rated (Log in to rate it)


Tracker:
udp://tracker.openbittorrent.com:80/announce

This Torrent also has backup trackers
URLSeedersLeechersCompleted
udp://tracker.openbittorrent.com:80/announce000
udp://tracker.opentrackr.org:1337/announce000
udp://exodus.desync.com:6969/announce000
udp://tracker.coppersurfer.tk:6969/announce000
udp://tracker.iamhansen.xyz:2000/announce000
udp://tracker.opentrackr.org:1337/announce000
udp://open.demonii.si:1337/announce000
udp://tracker.pirateparty.gr:6969/announce000


File List: 





Comments
No comments still posted